#TITLE:Lupin the 3rd;
#SUBTITLE:(Club Remix);
#ARTIST:DJ Potatoe;
#TITLETRANSLIT:;
#SUBTITLETRANSLIT:;
#ARTISTTRANSLIT:;
#CREDIT:;
#BANNER:;
#BACKGROUND:;
#LYRICSPATH:;
#CDTITLE:;
#MUSIC:Lupin 3.mp3;
#MUSICLENGTH:105.568;
#OFFSET:-0.460;
#SAMPLESTART:5.385;
#SAMPLELENGTH:12.000;
#SELECTABLE:YES;
#BPMS:0.000=143.940;
#STOPS:;
#BGCHANGES:;
#FIRSTBEAT:12.000;

#LASTBEAT:248.000;

#SONGFILENAME:Songs/ERICth The 3rd/Lupin 3/Lupin 3.sm;

#HASMUSIC:1;

#HASBANNER:0;


//---------------dance-single - MANIAC----------------
#NOTES:
     dance-single:
     MANIAC:
     hard:
     7:
     0.505,0.499,0.085,0.199,0.114,343.000,9.000,21.000,0.000,0.000:



0000
0000
0000
0000
,
0000
0000
0000
0000
,
0000
0000
0000
0000
,
0000
0000
0000
0000
,
0000
0000
0000
0000
0000
0000
0000
0000
0000
0000
0010
0000
1000
0010
0000
0000
,
1000
0100
0010
0100
1000
0010
0001
0010
,
1000
0100
0010
0100
1000
0010
0001
0010
,
1000
0001
0100
0001
0010
0001
0100
0010
,
1000
0100
0010
0001
0010
0100
1000
0001
,
2000
0000
0000
0000
3000
0100
0010
0001
,
0200
0000
0020
0000
0330
0000
1000
0001
,
0020
0000
0000
0000
0000
0030
0100
0010
,
0001
1000
0000
0000
0000
0000
0000
0000
0001
1000
0000
0000
0001
1000
0000
0000
,
0001
0010
0001
0010
0000
0001
0000
1000
0001
0000
0000
0000
0000
0000
0000
0000
,
0100
0100
0001
0010
1000
0010
0001
0100
,
0010
0100
0001
1000
0100
1000
0100
0001
,
0100
0010
0001
0010
1000
0010
0001
0010
,
0100
0010
1000
0100
1000
0100
0010
0001
,
2000
0000
0000
0000
0000
3100
0001
0100
,
2000
0000
3020
0000
0000
0000
1030
0100
,
2000
0000
0000
0000
0000
3010
0010
0000
,
0101
0000
0000
1010
0000
0000
0101
0000
0000
0000
0000
0000
0010
0000
1000
0000
,
0001
0000
0001
0000
0001
0000
0010
0001
,
1000
0000
1000
0000
1000
0000
0010
0100
,
1000
0000
0010
0100
0001
0000
0010
0100
,
1000
0000
0010
0100
0001
0000
0000
1000
,
0100
0010
0010
0010
0000
0000
0000
0001
,
0010
0100
0100
0100
0000
0000
0010
1000
,
0100
0000
0010
0001
0100
0000
0000
0000
,
0110
0000
0000
1001
0000
0000
1100
0000
,
2002
0000
0000
3003
,
1000
0100
0010
0100
1000
0010
0001
0010
,
1000
0100
0010
0100
1000
0010
0001
0010
,
1000
0001
0100
0001
0010
0001
0100
0010
,
1000
0100
0010
0001
0010
0100
1000
0001
,
2000
0000
0000
0000
3000
0100
0010
0001
,
0200
0000
0020
0000
0330
0000
1000
0001
,
0020
0000
0000
0000
0000
0030
0100
0010
,
1000
0200
0000
0000
0000
0000
0310
0220
,
0000
0000
0000
0330
,
0001
0200
0000
0000
0000
0000
0310
0220
,
0000
0000
0000
0330
,
1000
0010
1000
0000
0000
0000
0000
0000
0010
1000
0000
0000
1000
0001
0000
0000
,
0000
0000
0001
0000
0100
0010
0000
0010
0000
0000
0000
0000
0000
0000
0000
0000
,
1000
1000
0100
0010
0100
1000
1000
0100
,
0010
0100
1000
1000
0100
0001
0001
0100
,
1000
0000
1000
0000
0100
0000
0010
0000
0010
0000
0100
0000
0100
0000
0000
0001
,
1000
0001
1000
0000
0001
0000
0001
1000
0000
0000
0000
0000
0000
0000
0000
0000
,
0001
0100
0010
0100
0001
0001
0100
0010
,
0100
0001
0001
0100
0010
0010
0100
0100
,
0001
0100
1000
1000
0100
0001
0010
0010
,
0001
0100
0001
0000
1000
0000
0010
1000
0000
0000
0000
0000
0000
0000
0000
0000
,
1000
1000
0100
0010
0100
1000
1000
0100
,
0010
0100
1000
1000
0100
0001
0001
0100
,
1000
1000
0100
0010
0010
0100
0100
0010
,
0100
0010
0100
0010
0100
0010
0100
0100
,
0001
0100
0010
0100
0001
0001
0100
0010
,
0100
0001
0001
0100
0010
0010
0100
0100
,
0001
0100
1000
1000
0100
0001
0010
0010
,
1000
0010
0001
0010
1000
0010
0001
0000
,
1000
0100
1000
0000
0000
0000
0000
0000
0001
0010
0000
0000
0001
1000
0000
0000
,
0000
0000
1000
0000
0100
0010
0000
0002
0000
0000
0000
0000
0000
0000
0000
0000
,
0003
0000
0000
0000;

//---------------dance-single - ANOTHER----------------
#NOTES:
     dance-single:
     ANOTHER:
     medium:
     2:
     0.332,0.498,0.009,0.028,0.000,241.000,1.000,3.000,0.000,0.000:



0000
0000
0000
0000
,
0000
0000
0000
0000
,
0000
0000
0000
0000
,
2000
0000
0000
0000
,
0001
0000
0000
0000
0000
0000
0000
3000
,
0001
1000
0100
0000
0001
1000
0100
0000
,
0010
0000
1000
0000
0001
0010
0001
0000
,
0100
0000
0010
0000
1000
0010
0100
0000
,
0001
0000
1000
0000
0100
0010
0100
0010
,
0100
0000
0100
0000
1000
0000
0001
0100
,
0010
0000
1000
0000
0000
0000
0001
1000
,
0010
0000
0000
0000
0000
0000
0100
0010
,
0001
1000
0000
0000
0100
0000
1000
0000
,
0000
0010
1000
0000
,
0001
1000
0100
0000
0100
0000
0010
0000
,
0010
0100
0001
0000
0010
0000
1000
0000
,
0001
0010
1000
0000
0001
0000
0100
0000
,
0100
1000
0010
0000
0001
0000
0010
0001
,
0100
0000
0001
0000
1000
0100
1000
0000
,
0001
0000
0010
0000
0010
0000
0001
0010
,
0001
0001
1000
0100
,
0020
0000
0000
0000
,
0031
0000
0100
0000
1000
0000
0010
0100
,
1000
0000
0001
0000
0100
0000
0001
0010
,
0001
1000
0100
0010
,
0001
0000
1000
0100
1000
0000
0010
0100
,
0001
0000
1000
0000
0001
1000
0100
0000
,
0010
0001
0100
0000
0100
1000
0001
0000
,
0010
0000
0010
0000
0001
0000
1000
0001
,
0100
0000
0000
0001
0000
0000
0001
0000
,
0001
0000
1000
0000
0010
0000
0100
1000
,
0010
0000
0100
0000
0001
0010
0001
1000
,
0001
0000
0100
0000
0010
0000
0100
0010
,
0100
0000
1000
0000
0100
0000
1000
0001
,
1000
0000
0100
0000
0010
0000
0010
1000
,
0100
0000
0100
0000
1000
0000
0100
0001
,
0010
0000
0001
0000
1000
0000
0100
1000
,
0100
0000
0001
0000
0100
0001
0100
0001
,
0010
0000
0010
0000
,
1000
0000
0001
0000
,
1000
0000
0010
0000
1000
0001
0010
0001
,
0000
0100
0010
0100
,
1000
0100
0000
0000
0010
0000
1000
0000
,
0100
1000
0100
0000
,
0000
0000
1000
0000
,
0000
0001
0000
0100
,
0000
1000
0000
0000
,
0001
1000
0010
0000
,
0001
0000
0100
0000
,
1000
0000
0010
0000
,
0001
0000
1000
0000
0001
1000
0001
1000
,
0100
1000
0010
1000
0010
0000
0000
0000
,
0001
0000
0000
0001
,
0000
0001
0001
0000
,
0010
0000
0100
0000
,
0010
0000
0001
0000
0100
0001
0100
0000
,
0001
1000
0010
0000
,
0010
0001
1000
0000
,
0010
1000
0001
0010
0001
1000
0001
0010
,
0001
1000
0001
0010
0001
1000
0001
1000
,
0001
0001
0001
0001
,
1000
0000
1000
0000
1002
0000
0000
0003;

//---------------dance-single - BASIC----------------
#NOTES:
     dance-single:
     BASIC:
     easy:
     1:
     0.152,0.206,0.085,0.028,0.000,100.000,9.000,3.000,0.000,0.000:



0000
0000
0000
0000
,
0000
0000
0000
0000
,
0000
0000
0000
0000
,
0000
0000
0000
0000
,
0000
0000
0000
0000
,
0110
0000
0001
0000
,
1000
0000
0000
0000
,
0110
0000
1000
0000
,
0001
0000
0000
0000
,
1001
0000
0010
0000
,
0100
0000
0000
0000
,
1001
0000
0100
0000
,
0020
0000
0000
0000
,
0000
0000
0000
0030
,
1000
0000
0001
0000
,
1000
0000
0100
0000
,
1000
0000
0001
0000
,
1000
0000
0010
0000
,
1001
1001
0000
0000
,
0000
0000
0000
0000
,
1001
1001
0000
0000
,
0000
0000
0000
0000
,
0010
0000
0000
0100
,
0100
0000
0000
0010
,
0001
0000
0000
0100
,
0100
0000
0000
0010
,
1000
0000
0000
0100
,
0100
0000
0000
0010
,
0100
0000
0000
0100
,
0010
0000
0000
0000
,
0010
0010
0010
0010
,
0001
0000
0000
0000
,
1000
0000
0000
0000
,
0001
0000
0000
0000
,
0010
0000
0000
0100
,
0100
0000
0000
0010
,
0010
0000
0000
0100
,
0100
0000
0000
1000
,
0001
0000
0001
0001
,
1000
0000
1000
1000
,
0001
0000
0000
0010
,
0001
0000
0010
1000
,
0100
0000
0001
0000
,
0100
0000
2000
3000
,
0000
0010
0000
0010
,
0000
0000
0010
0000
,
0010
0000
0001
0000
,
0001
0000
0000
0000
,
1001
0000
0000
0010
,
0000
0100
0000
0000
,
0100
0000
0010
0000
,
0100
0000
0000
0000
,
1000
0000
0001
0000
,
0000
0001
0000
0100
,
0010
0000
0000
1000
,
0100
0000
0000
0000
,
0100
0000
0010
0000
,
0010
0010
0010
0000
,
1000
0000
0001
0000
,
0100
0000
0001
0000
,
1000
0000
0001
0000
,
0000
0000
0002
0000
,
0003
0000
0000
0000;
